Flac Bach

As with his album After Bach, released on Nonesuch in March of that year, the solo program pairs pieces from J. Bach - Suites for Cello Unaccompanied. PDP-CH - Chicago Symphony Orchestra, Frederick Stock - Orchestral Suite No. Bach: Gamba Sonatas by Hanoncourt, Brüggen, Stastny, and Tachezi [SAWT 9536-A Ex] an LP released in Germany in 1968 44. A Big Bach Download: The Complete Organ Works for Free. Back in the studio she has teamed up with the expert Arcangelo to record five Bach Violin Concertos, two undisputed masterpieces and three probable reconstructions: all to be treasured. Thirion: Trio pour piano, violon et violoncelle & Quatuor à cordes. cue+log) Bitrate: Lossless Total Time: 01:17:33 Total Size: 314 MB (Scans) Tracklist: 01. Bruckner: Symphony No 6 [download] NEW. flac music albums, tracks and sounds download free. Lady and the Tramp (1955) 720p BluRay x264 DTS-WiKi. Movies - Bollywood. Lee » audio music lossless 13 hours 209 MB 8 4 [Nemuri] Ōhashi Ayaka 大橋彩香 (2014-2019) [FLAC] » audio music lossless 13 hours 3101 MB 14 21 1996-10-23 A Price In Return » audio music lossless 13 hours 650 MB 1 0 GRAHAM BONNET » audio 13. top/file/VA - J. 1 & 2 BWV 812 & 813 • Italian Concerto • Chromatic Fantasia And Fugue - Wolfgang Rübsam/10. 564 / Toccata And Fugue In D Minor BWV 565 / Prelude And Fugue In C Major BWV 531 / Partita In C Minor BWV 767 flac download. Bach: Secular Cantatas, Vol. flac 54 MB 02. Bach: The Well-Tempered Clavier, Book I (Live in Troy, NY / 1987) (2019) [ECM Records; Flac/Mp3] Classical / Baroque “These are performances in which tempos, phrasing, articulation and the execution of ornaments are convincing,” wrote Gramophone of Jarrett’s first recorded account of The Well-Tempered Clavier. They are governed by the Creative Commons Zero license, which means that they are a part of the public domain, and every use of them is allowed. Browse, buy, listen and download!. Get a year of Deezer Premium for $99. 1 & 2 BWV 812 & 813 • Italian Concerto • Chromatic Fantasia And Fugue - Wolfgang Rübsam/10. MQA and FLAC are lossless encodings derived directly from our original production masters. Hyperion offers both CDs, and downloads in a number of formats. Jeff Kryka) 05:12 02. Re: Free FLAC and MP3 download of Bach's Brandenburg Concertos Quote: By the way, for baroque horn "done right" I would warmly recommend Nikolaus Harnoncourt's reading of three Haydn Symphonies with the Concentus Musicus Wien. Brandenburg Concerto No. This page lists all recordings of St John Passion, BWV245 (Johannes-Passion) by Johann Sebastian Bach (1685-1750) Hi-Res FLAC (lossless, 48 kHz, 24 bit) $22. At a tender age, renowned cellist Pablo Casals was introduced to Bach’s legendary Cello Suites. Contrapunctus 1-The Art of Fugue BWV 1080,Johann Sebastian Bach. Bill Evans Trio ‎- At Shelly's Manne-Hole, Hollywood, California (Pure DSD) Duke Ellington: Indigos. Walking Through A House Where A Family Has Lived 4. Canone alla Nona - Variatio 28 a 2 Clav. 1 MB: 0: 0: unknown: Bach - Partitas BWV 825-830 (Jory Vinikour) - 2016, FLAC: 14 Feb: 1. 90 instead of $119. I Don't Need You 7. Sonates pour flûte à bec et basson. Contrapunctus 2-The Art of Fugue BWV 1080,Johann Sebastian Bach. rar KOKIA - Christmas gift [24bit ⁄ 96kHz]. 15 - Suite #6 BWV811 I Prelude. eD2k链接: 下面是用户共享的文件列表,可以使用迅雷、QQ旋风等软件进行下载,点击文件名进行下载: Glenn. Bach originally written for keyboard instruments plus a sonata for viola da gamba. Artist: Johann Sebastian Bach (Sigiswald Kuijken) Title Of Album: Sonatas & Partitas, BWV 1001-1006 Release Date: 1983 (1990) Location: Germany Label: Deutsche Harmonia Mundi • BMG Ariola (GD77043) Genre: Classical, Baroque Quality: FLAC | lossless (tracks) +. flac" (1/31) yEnc 18435278 Bytes collection size: 357. Search/browse tools. 69MB Bach - BWV1025 - Suite in A major - Suite for violin, keyboard [FLAC]. flac 6,835 KB; 03 - Suite #2 BWV807 III Courante. Made in England Catalog #: SBT 2131 Style: Classical Released: 1999 Format: FLAC (image +. Previous 1 2 3 … 426 Next. cue + log Length: 01:03:25 • 01:04:56 min Tracks: 16 • 15 Total Size: 750 Mb (+3%) WebSite: Home Page. Download your music and take it from your morning run to dinner out with Deezer Premium. 1 kHz (Tracks) Artist: Amit Peled Title: Bach Suites 1-3 Published: 2019 Genre: Classical RAR Size: 255 Mb Tracklist: 01. James Kibbie on original baroque organs in Germany, are offered on this site. 4 kHz, FLAC. Bach_Astier_7. Johann Sebastian Bach - CD V-09 - Secular Cantatas, BWV 36c, 209, 203 (62:27). Sound Liaison Music Store. Tales Beyond Words - Stefan Schmiz [FLAC] Bach, Complete Works for Lute - Yasunori Imamura ( Silvius Leopold Weiss, Sonatas - Stefan Schmitz [F Eterna Saudade - Stefan Schmitz [FLAC] Radamés Gnattali, 2 Concertinos for Guitar and Orc Silvius Leopold Weiss, Sonaten - Michael Dücker [F Images, Marin Marais - Mieneke Van Der Velden. cue) Quality: lossless Covers: 300 dpi Amount of tracks: 19 + 19 Size RAR: ~ 571. 21 GB WebSite: Album Preview. Download a free and public domain recording and musical score. The business grew rapidly and in 1924, the first Bach trumpets were produced. 0 % Test CRC 17B187EA Copy CRC 17B187EA Copy OK No errors occurred AccurateRip summary Track 1 not present in database Track 2 not present in. Bach Emmanuelle Bertrand Classical 2019 Added: 7-09-2019, 16:31 To bookmarks. Available in 88. 6 (Miklós Spányi) (2001) Bis / CBR320k / scans O Púbis da Rosa ALBERTO GINASTERA : The Complete Piano Music & Chamber Music with Piano • 1 (1993) FLAC (tracks+. Alina Ibragimova recently transfixed Proms audiences with her live solo Bach performances. Search/browse tools. Note that the compression ratios of all lossless codecs falls in a quite narrow range; the difference between the very best and very worst is only around 7%, and only 4% for the practical codecs. Bach Easter Oratorio quantity Add to basket Unsure about Audio Quality Options? Album CD will be Physically, Shipped - MP3 and FLAC are downloads whether to choose MP3 or FLAC?. The FLAC encoding is done at 32bits per sample. Handel: " The Messiah " FLAC Sides 1/2/3 Mega Download Sides 4/5/6 Mega Download Lois Marshall, Soprano - Mary Palmateer, Contralto - Jon Vickers, Tenor - James Milligan, Bass Toronto Mendelssohn Choir & Symphony Orchestra conducted by Sir Ernest MacMillan World Record Club TP 216-8 1962 pressings/matrices: W7596-7601 -2N,2N,2N,3N,2N,2N. 1-6 (1999) [FLAC] Artist: Adrian Boult Album: Bach - Brandenburg Concertos Nos. Johann Sebastian Bach - CD V-10 - Secular Cantatas, BWV 201 (49:44). 3: Music for the Very Early Morning. February 13, 2020. Life Is Beautiful. Download Bach Collegium Japan & Masaaki Suzuki - J. 11: Bach Cantatas Vol. Contrapunctus 2-The Art of Fugue BWV 1080,Johann Sebastian Bach. They are 3. Ships to: Worldwide. Author whatever Posted on April 29, 2020 April 29, 2020 Categories 24bit/96kHz, Classics, Hi-Res Tags Armida Quartett, Bach, Beethoven, Goldberg, Haussmann, Mozart, Scarlatti Leave a comment on Armida Quartett – Fuga Magna (24/96 FLAC). File:PDP-CH - Philadelphia Orchestra - Leopold Stokowski - Toccata and Fugue in D minor, BWV 565 - Part 1 - Johann Sebastian Bach - Electrola-ej231-5-0761. Bach: 6 Duets for 2 Flutes Year Of Release: 2020 Label: Laplace Records Genre: Classical Quality: flac lossless / flac 24bits - 96. Download (Classical, Chamber) Bach - Die Kunst der Fuge (Musica Antiqua Koln, Reinhard Goebel) - 1990, FLAC (tracks+. Vikingur Olafsson - Johann Sebastian Bach (2018) FLAC (tracks) 24 bit/96 kHz | Time - 01:17:12 minutes | 1,03 GB | Genre: Classical Studio Masters, Official Digital Download | Digital …. 4 in E flat major, BWV 815 (BC L22)- Sarabande. #N#Bach - Isoir: Transcriptions. If you would like to help expand and improve this list, and integrate it with other Wikipedia articles, please visit the free music taskforce. 3 - Box Set 53CDs. A4 pages, 600 dpi scan with stamp added showing the printed source and a digital table of contents built by the uploader. 2Mb 3 Schubert String Quartet No 14 in D minor, D810 - 3 Scherzo Allegro molto. Bach / Thomanerchor / Dresdner Kreuzchor. Praeludium. com you can download lossless music in popular formats FLAC, APE, ALAC, MP3, M4A. Direct download via magnet link. Back In The USA] Disc 2: 01 Stairway To Heaven 02 That’s The Way 03 Going To California 04 Whole Lotta Love [inc. Vivaldi: Concertos pour flûte à bec. Through The Years 3. 6 (Miklós Spányi) (2001) Bis / CBR320k / scans O Púbis da Rosa ALBERTO GINASTERA : The Complete Piano Music & Chamber Music with Piano • 1 (1993) FLAC (tracks+. 27 MB 02 Concerto in A minor, BWV 1041/Andante. nachspielet23) submitted 12 minutes ago by nachspielet23 DOWNLOAD LINK: megafile3. New Releases for Download. Suite for Cello Unaccomp. E-shop funguje bez omezení! Fyzické nosiče i digitální obsah ke stažení nakoupíte online z pohodlí domova. RCA RL253203 1979 RCA UK pressing. Canyon (Waiting Alive In A Canyon) 7. Uploaded 01-15 00:07, Size 385. Building offline music playlist of high quality from YouTube video is good way to kill boredom during the COVID-19 crisis. Ave Maria(bach) 8. Fragile 06. 5 MB Gary Karr - Audiophile Selections KING/11 Air From Orchestral Suite No3 In D Major. Suscribirse a: Comentarios de la entrada (Atom) Buscar. It Came Upon A Midnight Clear 9. Bach Easter Oratorio quantity Add to basket Unsure about Audio Quality Options? Album CD will be Physically, Shipped - MP3 and FLAC are downloads whether to choose MP3 or FLAC?. Variations]. Bach - Toccata and Fugue in D Minor BWV 565 // Amy Turk, Harp YouTube Debussy - Deux Arabesques (Harpe) - Héloïse de Jenlis - Duration: 9:24. Héloïse de Jenlis. French Suite, for keyboard No. 10: Bach Edition Vol. 1 surround mix and and a 5LP vinyl collection. FLAC 16 bit / Pop / Indie Today, 13:53 14 Lira All albums Ben Noble. ‘Air’ from Orchestral Suite No. Download high resolution audio files from Norwegian 2L in stereo 96kHz, 192kHz, DXD, DSD and 5. Ce fichier et sa description proviennent de Wikimedia Commons. Life Is Beautiful. #N#Bach - Isoir: Transcriptions. 0 % Test CRC 17B187EA Copy CRC 17B187EA Copy OK No errors occurred AccurateRip summary Track 1 not present in database Track 2 not present in. 61 MB02 Bach -2. ATMA catalog now comprises more than 450 titles in many genres, from classical era to world music. Yanchenko: Bach - Organ Concertos BWV 592, 593, 594 (24/192 WV) Mackerras: Delius Edition (8 CD box set, FLAC) Leonhardt: Bach - Die Meisterwerke Fur Klavier Und Orgel (20 CD box set, FLAC) Leonard Bernstein - Composer and Conductor (10 CD, FLAC) Legendary Performances of Giuseppe Di Stefano (14 CD box set, APE). Red Hot + Bach charts a new pathway into the musical universe of Johann Sebastian Bach. 99/month, 3 months free. 31 MiB, ULed by Earthling1: 0: 2: Audio (). Praeludium. Best Violin 100 free download flac music compositions Best Violin 100 classical music compositions, symphonies, piano sonatas, violin concerto and symphony songs, operas and string ‘s quartets, etc all compositions works flac Best Violin 100 mp3 free download the best of Best Violin 100 torrent. Publicadas por Jujaj á a la/s 12:13. 8224 MHz | 92:59 minutes | Basic Scans + PDF | 5,52 GB or FLAC 2. Very little is known about the origin of J. MP3 WAV AIF FLAC Funded by Kickstarter. Voyager: Essential Max Richter. Collection of symphonic and operatic works. 1 surround mix and and a 5LP vinyl collection. FLAC files usually can't be played on MP3 players. 24/48: Jascha Horenstein / New Philharmonia - Tchaikovsky. In 1918, with the investment of $300 for a foot-operated lathe, Vincent Bach went into the business of making mouthpieces. Carl Philipp Emanuel Bach [1714-1788] CAPRICCIO 1999 / 12CD SET El Púbis de la Rosa ARVO PÄRT - Collage (1993) FLAC (tracks+. 77 GB Total Japan Import | Year: 1959, 2012 This recording featuring Bach’s complete Partitas for keyboard are probably one of Glenn Gould’s most accessible and easy to digest interpretations, so it’s no surprise that Sony has chosen it for re. 1 in A minor BWV 1041 - i. 1 In B-Flat Major, Partita No. Bach Collegium Japan & Masaaki Suzuki - J. Music; Digital Download; FLAC Downloads; FLAC Multichannel 96kHz/24bit. Bach Johann Sebastian - Weinachts Oratorium (1999) [FLAC]/19 Teil 2, no 19 Arie. FLAC Perfect quality open source FLAC files. Yehudi Menuhin, Kurt Masur, Gewandhausorchester Leipzig - Beethoven: Violin Concerto-Menuhin-Masur download flac. Contrapunctus 1-The Art of Fugue BWV 1080,Johann Sebastian Bach. A Pilgrims Trail 2. Keith Jarrett - J. Héloïse de Jenlis. Here at Allflac. Bach - The Complete Organ Works vol. Courante 04. 2 in D minor, BWV 1004: 5. 10: Bach Edition Vol. Re: Free FLAC and MP3 download of Bach's Brandenburg Concertos Quote: By the way, for baroque horn "done right" I would warmly recommend Nikolaus Harnoncourt's reading of three Haydn Symphonies with the Concentus Musicus Wien. 4 in E flat major, BWV 815 (BC L22)- Sarabande. 1-6 (2002/2012) [PrestoClassical FLAC 24/96]. Bach_Astier_15. Johann Sebastian Bach, Edith Mathis, Kammerorchester Berlin, Peter Schreier - Hochzeits-Kantate "Weichet Nur, Betrübte Schatten Bwv 202 flac download Classical Mahler / Otto Klemperer / Elisabeth Schwarzkopf - Symphony No. 99$ qualité CD / CD quality (FLAC 44,1 kHz - 24bits). Сlassical music archive. Artist: Australian Chamber Orchestra, Richard Tognetti Title: Bach / Beethoven: Fugue (2017) Year Of Release: 2017 Label: ABC Classics Genre: Classical Quality: 24bit-96kHz FLAC Total Time: 61:03 Total Size: 1. Pink Noise, 24 Bit High Definition Audio Test Files Pink Noise, 24 Bit / 44. 6 (Miklós Spányi) (2001) Bis / CBR320k / scans O Púbis da Rosa ALBERTO GINASTERA : The Complete Piano Music & Chamber Music with Piano • 1 (1993) FLAC (tracks+. Yanchenko: Bach - Organ Concertos BWV 592, 593, 594 (24/192 WV) Mackerras: Delius Edition (8 CD box set, FLAC) Leonhardt: Bach - Die Meisterwerke Fur Klavier Und Orgel (20 CD box set, FLAC) Leonard Bernstein - Composer and Conductor (10 CD, FLAC) Legendary Performances of Giuseppe Di Stefano (14 CD box set, APE). A greatest-hits album is a tough item for Ma because his recordings are so different from one another and involve such a variety of other musicians. FLAC files usually can't be played on MP3 players. Vincent Bach Stradivarius Instruments. 3 - 6 BWV 814 - 817 - Wolfgang Rübsam/11. Héloïse de Jenlis. top/file/Erik Feller Carl Philipp Emanuel Bach Les 6 Sonates pour orgue (2004) FLAC. Music albums, popular format mp3, flac, ape free download. French Suite/ for keyboard No. BACH (1714-1788) The Solo Keyboard Music, Vol. They are believed to have been written before 1717 or the end of Bach's Weimar period - but it is quite possible that at least some of them were drafted before he arrived there in 1707, at the age of 22. Made in England Catalog #: SBT 2131 Style: Classical Released: 1999 Format: FLAC (image +. He has enjoyed commissions from, among others, St John’s College, Cambridge, The Cathedral Choral Society of Washington DC, VOCES8, the BBC Singers. File:PDP-CH - Adolf Busch Chamber Players - Adolf Busch - Suite No. Lee » audio music lossless 13 hours 209 MB 8 4 [Nemuri] Ōhashi Ayaka 大橋彩香 (2014-2019) [FLAC] » audio music lossless 13 hours 3101 MB 14 21 1996-10-23 A Price In Return » audio music lossless 13 hours 650 MB 1 0 GRAHAM BONNET » audio 13. A little background is that FLAC is the Free Lossless Audio Codec, which means that there is no loss of quality at all. Thirion: Trio pour piano, violon et violoncelle & Quatuor à cordes. Hurford: Bach - The Organ Works vol. Sonya Bach – Chopin: Etudes. Largo ma non tanto4 - Mass in B minor, BWV 232: Agnus dei5 - Herz und Mund und T. We find the free courses and audio books you need, the language lessons & educational videos you want, and plenty of enlightenment in between. MP3 WAV AIF FLAC Funded by Kickstarter. BACH Praeludium, C min, BWV 546-1 Jean-Luc Thellin: Bach Johann Sebastian 1685-1750: 1 / 2. Bach: Secular Cantatas, Vol. August 2011 EAC extraction logfile from 14. 27 MB 02 Concerto in A minor, BWV 1041/Andante. Matthew Passion, BWV 244 (2020) Flac or any other file from Music category. 7digital provides a catalogue of over 30 million high-quality music tracks and a wealth of uniquely curated recommendations. A collection of our 24-bit FLAC releases. Cello Suite N° 1 in G Major, BWV 1007; II. Allegro Assai. Carl Philipp Emanuel Bach [1714-1788] CAPRICCIO 1999 / 12CD SET El Púbis de la Rosa ARVO PÄRT - Collage (1993) FLAC (tracks+. Vivaldi: Concertos pour flûte à bec. Код: Exact Audio Copy V1. Notes From Kimiko Ishizaka's Open Well-Tempered Clavier. 24 bit flac downloads free - Free High Res Music Downloads. 5 full length by Johann Sebastian Bach. Back in the studio she has teamed up with the expert Arcangelo to record five Bach Violin Concertos, two undisputed masterpieces and three probable reconstructions: all to be treasured. flac 33 MB; 01 - Suite #2 BWV807 I Prelude. 2 in D minor, BWV 1004: 5. Quality: FLAC 16 bit / 44. 12 (2019) FLAC 24-96 Claudio Abbado - Bach: 6 Brandenburg Concertos (2007) [BDRip 720p] [BOX SET] Scott Ross - Bach: Keyboard Works (11CDs, 2019) Lossless. 32 MB Bach ‎- French Suites Nos. 2 kHz, FLAC Pink Noise, 24 Bit / 96 kHz, FLAC Pink Noise, 24 Bit / 176. Bach - Cello Suites - Guido Schiefen. 0 Topics musopen, kickstarter, public domain, lossless, flac, classical music. 0 released - 23 Jul 2007 New in this release are small speed improvements, and some new options and bug fixes. Search/browse tools. Ultimate Bach The Essential Masterpieces Box Set (2006) {FLAC} vtwin88cube CD1 - Brandenburg Concertos 1-3 01. Mahler Symphony No. Note that the compression ratios of all lossless codecs falls in a quite narrow range; the difference between the very best and very worst is only around 7%, and only 4% for the practical codecs. Download classical music FLAC, Hi-Res, SACD. flac 5,174 KB; 04 - Suite #2 BWV807 IV Sarabande. 06 - Interpretation Swing Du 1er Mouvement Du Concerto En Re Mineur De J. mp3 files with new ones (the -y flag tells ffmpeg to overwrite previous output files with the same name without asking for. Bach: Gamba Sonatas by Hanoncourt, Brüggen, Stastny, and Tachezi [SAWT 9536-A Ex] an LP released in Germany in 1968 We have here a collection of sonatas for gamba and violoncello which are handsomely played and recorded with a precision which never enters into the territory of the dry and clinical. We've Got Tonight (with Sheena Easton) 8. Jacques Loussier - Bach - Concerto In F Minor, BMV 1056 - Largo (00:03:24). File:PDP-CH - Adolf Busch Chamber Players - Adolf Busch - Suite No. Southern Culture on the Skids - Doublewide and Live (2006)[FLAC] Uploaded 12-31 2019, Size 516. Direct download via magnet link. 3 MB) 07 - Improvisation Sur Le 1er Mouvement Du Concerto En Re Mineur De J. cue), lossless. 16 MB, parts available: 617 / 617. Johann Sebastian Bach (1685-1750) Alternative names: J. Penny Irie - Hot Gal. Her first Magnatune release is our all-time best-selling album, and now Lara St. Genre : Classical Release Date : 2020 Format. Bach 2000, 85 album flac download free. FLAC 16 bit / Pop / Indie Today, 13:53 14 Lira All albums Ben Noble. 04 Concerto in E major, BWV 1042/Allegro. Kimiko Ishizaka - Bach- Well-Tempered Clavier, Book 1 - 01 Prelude No. MP3 WAV AIF FLAC Funded by Kickstarter. 73MB Andrea Buccarella - Toccata- From Claudio Merulo to Johann Sebastian Bach (2019) [24-192] 2. On the technical side of things, I have spent a great deal of my career as a consultant, doing data analysis and visualization. Filename C:\EAC Rips\Bach - Hilary Hahn plays Bach (1997) [FLAC] {Sony Classical}\08 - Partita no. Label: Nettwerk ‎– 06025 4744638 1, Island Records ‎– 06025 4744638 1, Music For Millions ‎– 06025 4744638 1, Universal Music Group ‎– 06025 4744638 1. 86MB Bach - BWV1026 - Fugue in G minor - Fugue for violin, continuo [FLAC]. flac ‎ (Fichier audio FLAC, durée 13 s, débit 355 kbps sur l’ensemble). Progressive Rock. Artist: Bob van Asperen Title: Bach: Goldberg Variations & Toccatas Year Of Release: 2009 Label: Erato / Virgin Classics Genre: Classical Quality: FLAC (image +. "There have always been elements of Mehldau's style that recall Bach," writes Timo Andres in the liner note. Chiara Zanisi & Giovanni Sollima - The Lady from the Sea: Duos for Violin and Cello from Vivaldi to Sollima (2020) Hi-Res. Bach - English Suites, Englische Suiten - Gustav Leonhardt Baroque EAC Rip APE+CUE+LOG HQ Scans 2 CD 932 MB RS Sony SB2K63949 remastered in 1997 1st recording of English Suites BWV 806-811 by Gustav Leonhardt. Bach - The English Suites Glenn Gould (200 [FLAC] Label: Sony Classical Format: 2 CD Released:2008 Genre: Classical. MP3 daily 2020 February 26 Club » Music. 8 % Extraction speed 4. Previous 1 2 3 … 426 Next. 8: Cantata BWV 49 [25:54] Pieter Jan Leusink: Netherlands Bach Collegium: Soprano: Ruth Holton; Bass: Bas Ramselaar NBC: John Wilson Meyer (Concert-master), Laura Johnson, Ewa Scheytt, Pieter Affourtit, Wanda Visser, Elin Eriksson, Fanny Pestalozzi, Rachael Beesley, Antoinette Lohmann, Mimi Mitchel (Violins); Jan Willem Vis, Simon Murphy, Örsze Adam. New Albums 2020; 2019; Hi-Res & Vinyl; Discography; CD-Rip; March 25, 2020. Violin Concerto No. We invite you to join us in this evaluation of future consumer delivery formats. Bandalos Chinos - BACH - 320 kbps y FLAC - MEGA Descargar 320 kbps. Ambrosius was born in Erfurt, Germany. The Well-Tempered Clavier, Book 1: Prelude In С Major, BWV 846 02. Books - Audiobooks. 0 % Test CRC 17B187EA Copy CRC 17B187EA Copy OK No errors occurred AccurateRip summary Track 1 not present in database Track 2 not present in. The site is also available in several languages. Bach - Cello Suites - Guido Schiefen. Available on all your devices, all the time, even without WiFi or 4G. Publicadas por Jujaj á a la/s 12:13. 3 - 6 BWV 814 - 817 - Wolfgang Rübsam/09. 3 in D major, BWV 1068 - Gavotte - Bach - Hmv-db3019-2ea3898. I was searching BACH's music in FLAC on internet and found this thread very helpful Now let me tell you from where the inspiration came I was watching The Good Wife S04E18 last night and there was a mention of BACH's music and it played as a background music throughout the episode I just loved the music, so I listened few tracks of BACH. Shellac Recordings. Louis-Philippe Bonin. 475 : MP3: FLAC: Hi Res FLAC (96/24) Schumann Fantaisie in C, opus 17 : MP3: FLAC: Hi Res FLAC (96/24). Since the late 1970s, Telarc International has been the creative. Bach originally written for keyboard instruments plus a sonata for viola da gamba. Artist: Alexis Roman, Seiya Ueno Title: W. 8 MB) 37 Satie- 3 Gymnopédies - No. 69MB Bach - BWV1025 - Suite in A major - Suite for violin, keyboard [FLAC]. dBpoweramp Music Converter mp3 conversions perfected. Accéder au fichier sur Commons. Stan Getz, Coleman Hawkins, Cannonball Adderley, Bud Shank, Laurindo Almeida, Luiz Bonfá, Charlie Byrd, Barry Galbraith, Durval Ferreira, Howard Collins, Sérgio Mendes, Antonio Carlos Jobim - Brasileiro download flac. 99$ qualité studio / studio master (FLAC 96 kHz) 12. Vikingur Olafsson - Bach Reworks (Part 2) (2019) [FLAC 24bit/44,1kHz] Gidon Kremer, Giedre Dirvanauskaite, Yulianna Avdeeva - Weinberg: Chamber Music (2019) [FLAC 24bit/96kHz] Hai-Kyung Suh - Sound Paintings (2019) [e-Onkyo FLAC 24bit/96kHz]. Bach - The Complete Organ Works vol. 24 FLAC Discount After her acclaimed PENTATONE debut with Transfigured Night , Alisa Weilerstein returns with a complete recording of Bach’s Cello Suites. Bach - Suites for Cello Unaccompanied. Rêves d'Espagne. flac 4 min 28 s; 158. Bach - Suites for Cello Unaccompanied, Complete Artist(s): Daniil Shafran, cello Recording Info: Transferred from a 15ips 2-track tape to DSD128Recorded by Meloydia1. Quality: FLAC 16 bit / 44. The first release was in a series of 23 boxes, each of which contained CDs in standard jewel boxes. Musicians frequently referred to a Bach trumpet as a real 'Stradivarius', thus inspiring the name Bach. Johann Sebastian Bach - CD V-10 - Secular Cantatas, BWV 201 (49:44). 47 24-bit FLAC. The site is also available in several languages. 13 MiB, ULed by keeybee: 2: 0: Audio. Domenico Mazzocchi: Le Temple et le désir. File Name: Size: 32. Click Familiar Masterworks to begin with a selection of audience favorites. Thibault Noally – Baltzar > Bach: à violino solo (2013) FLAC (tracks) 24 bit/96 kHz | Time – 01:19:07 minutes | 1,51 GB | Genre: Classical Studio Masters, Official Digital Download – Source: Qob…. 69MB Bach - BWV1025 - Suite in A major - Suite for violin, keyboard [FLAC]. 28 MB 05 Concerto in E major, BWV 1042/Adagio. [Hi-Res] David Goode - Bach: The Complete Organ Works, Vol. MP3 daily 2020 February 26 Club » Music. 475 : MP3: FLAC: Hi Res FLAC (96/24) Schumann Fantaisie in C, opus 17 : MP3: FLAC: Hi Res FLAC (96/24). Blues Reggae Rock music Classical Jazz Funk and Soul Latin Brass and Military Hip-Hop Pop music Children's music Stage and Screen Folk, World, Guitare-Bach Vol. Bach - The Complete Keyboard Works - Zuzana Ruzickova - Box Set 20CDs Label : Erato Format : Flac track Cover : Box (front + back) Mercury Living Presence - Collector's Edition Vol. FLAC files usually can't be played on MP3 players. Bach Easter Oratorio quantity Add to basket Unsure about Audio Quality Options? Album CD will be Physically, Shipped - MP3 and FLAC are downloads whether to choose MP3 or FLAC?. 2 in B minor, BWV 1067, Polonaise and Double, Minuet, Badinerie - Bach - Hmv-d1674-6-0687. Building offline music playlist of high quality from YouTube video is good way to kill boredom during the COVID-19 crisis. Search Torrents Bach - Concerto Italien - Kenneth Gilbert. Wabi "Absorb the pain and react smoothly… don't become. Or play online. Musicians frequently referred to a Bach trumpet as a real 'Stradivarius', thus inspiring the name Bach. A4 pages, 600 dpi scan with stamp added showing the printed source and a digital table of contents built by the uploader. 564 / Toccata And Fugue In D Minor BWV 565 / Prelude And Fugue In C Major BWV 531 / Partita In C Minor BWV 767 flac download. FLAC 192 5CH + FLAC 192 2CH + MP3. wav Peak level 98. Tracklist01 Bach Concerto Bwv 1058- 1. Movies - CAM/TS. At a tender age, renowned cellist Pablo Casals was introduced to Bach’s legendary Cello Suites. WEB FLAC 24bit/96kHz KOKIA - Christmas gift [24bit ⁄ 96kHz]. They last recorded together, with Stuart Duncan, on the Grammy-winning album The Goat Rodeo Sessions, which the Los Angeles Times called "haunting, invigorating, often breathtaking. Hash: 96e8e2b70a3882e0dca86f26b766d56d24c0afcb This torrent contains 20 files. The Open Goldberg Variations (Johann Sebastian Bach, BWV 988), played by Kimiko Ishizaka on a Bösendorfer 290 Imperial piano, are free to download and share. Writer: Bach Violin and Piano. 0kHz Total Time: 01:07:12 Total Size: 306 mb / 1. Home > FLAC Downloads > Page 2 of 8. Bach Solo Suites KING/10. 8: Cantata BWV 49 [25:54] Pieter Jan Leusink: Netherlands Bach Collegium: Soprano: Ruth Holton; Bass: Bas Ramselaar NBC: John Wilson Meyer (Concert-master), Laura Johnson, Ewa Scheytt, Pieter Affourtit, Wanda Visser, Elin Eriksson, Fanny Pestalozzi, Rachael Beesley, Antoinette Lohmann, Mimi Mitchel (Violins); Jan Willem Vis, Simon Murphy, Örsze Adam. Voyager: Essential Max Richter. The two new editions will be a 4CD+blu-ray set which includes a new stereo mix and a 5. What is Album Only? Some artists and labels prefer certain tracks to be purchased as part of an entire release. Intro/Funeral For A Friend/Love Lies Bleeding. Imposing and impressive, the elegant five-star Sugar Beach unfurls along the sun-drenched, sheltered bay of Flic-en-Flac, bordered by crystalline waters, manicured gardens and one of the most picturesque beaches on the island. Brad Mehldau brought his Three Pieces After Bach program to the Philharmonie de Paris back in April 2018. Yehudi Menuhin, Kurt Masur, Gewandhausorchester Leipzig - Beethoven: Violin Concerto-Menuhin-Masur download flac. 06 - Interpretation Swing Du 1er Mouvement Du Concerto En Re Mineur De J. FORMAT: Lossless (Flac) SIZE: 422 mb (3% Recovery) Recorded live at Mosport Park, Bowmanville, Ontario, Canada on Saturday, August 26th, 1978. Bach_Astier_7. flac 54 MB 02. Previous 1 2 3 … 426 Next. This plantation-style resort masterfully balances old-world opulence with modern comforts and offers panoramic views of. Bach - The Complete Keyboard Works - Zuzana Ruzickova - Box Set 20CDs Label : Erato Format : Flac track Cover : Box (front + back) Mercury Living Presence - Collector's Edition Vol. Preview Rachmaninoff, Bach-Busoni & Liszt: Virtuoso Piano Works Rachmaninoff, Bach-Busoni & Liszt: Virtuoso Piano Works Vladislav Mikhalchuk 2020 From $4. Converting FLAC files to MP3 files will save you space and make your music playable in more places. 2 In C Minor download mp3 flac Johann Sebastian Bach, Glenn Gould - The 1955 Goldberg Variations - Birth Of A Legend download mp3 flac. 1 in C Major 02. Thirion: Trio pour piano, violon et violoncelle & Quatuor à cordes. Year of release: 2010. Islands In The Stream (with. 1 in G Major, BWV 1007: I. Ben Noble - Where the Light Comes In (2020) FLAC. 0 % Test CRC 17B187EA Copy CRC 17B187EA Copy OK No errors occurred AccurateRip summary Track 1 not present in database Track 2 not present in. Bach - Sonatas and Partitas (2001) [FLAC] (Sigiswald Kuijken) – 245CBC4EA845F04AEBE5845B8A276E975CD232B1 – | Download torrents at Zooqle. Download Bach Collegium Japan & Masaaki Suzuki - J. Bach Johann Sebastian - Weinachts Oratorium (1999) [FLAC]/19 Teil 2, no 19 Arie. Our free test files are available for you to test which audio format is compatible with your system. flac ‎ (Fichier audio FLAC, durée 13 s, débit 355 kbps sur l’ensemble). 100 Best Vivaldi (2008) FLAC-CUE / Lossless; VA - Best Of Bach (2020) VA - Ultimate Bach: The Essential Masterpieces (2006) Life of Bach (2019) Thomas Heywood - Spectacularly Bach (2019) VA - Bach 333 Piano Legends (2018) VA - Bach Adagio (2015) VA - Bach: The Essentials (2017) Ophelie Gaillard - Collection - 2009 - 2014. The English Suites, BWV 806-811, are a set of six suites written by the German composer Johann Sebastian Bach for harpsichord and generally thought to be the earliest of his 19 suites for keyboard, the others being the six French Suites, BWV 812-817, the six. 1-6 Year: 1999 Genre: Classical Codec: FLAC (tracks+. Joshua Bell - Bach (2014) Size: 1696 mb. Bach's Well-Tempered Clavier with Mehldau's own works inspired by Bach. File Name: Size: 32. Life Is Beautiful. Year of release: 2010. There are a large number of software programs. Bach Solo Suites KING/01. 1 X Range quality 100. Код: Exact Audio Copy V1. 1-6 (17 CD, FLAC) Bach: The Landowska Recordings (7 CD box set, APE) Rubsam: Bach - The Organ Works, The Art of Fuge (16… Walcha: Bach - Organ Works, The 1947 - 1952… The RIAS Bach Cantatas Project (9 CD box set, APE) Suzuki: Bach - Fantasies & Fugues (FLAC) Pinnock: Bach - 6 Partitas, Goldberg Variations,…. Studio Quality Downloads. HTTP download also available at fast speeds. Johann Sebastian Bach - CD V-07 - Motets, BWV 225-230 (65:38). Wolfgang Amadeus Mozart: Clarinet Concerto in A major, K. Author whatever Posted on April 29, 2020 April 29, 2020 Categories 24bit/96kHz, Classics, Hi-Res Tags Armida Quartett, Bach, Beethoven, Goldberg, Haussmann, Mozart, Scarlatti Leave a comment on Armida Quartett – Fuga Magna (24/96 FLAC). FLAC Perfect quality open source FLAC files. 0 % Test CRC 17B187EA Copy CRC 17B187EA Copy OK No errors occurred AccurateRip summary Track 1 not present in database Track 2 not present in. 90 instead of $119. #N#Bach - Isoir: Transcriptions. Best Dutch High-End Audio Shop. Slave To The Grind 02. There are a large number of software programs. Olivier Fortin, Emmanuel Frankenberg, Ensemble Masques – Bach: Concertos for Two Harpsichords (2020) FLAC (tracks) 24 bit/96 kHz | Time – 59:36 minutes | 1,22 GB | Genre: Classical Studio Mas…. If you would like to help expand and improve this list, and integrate it with other Wikipedia articles, please visit the free music taskforce. Uploaded 05-01 2013, Size 356. Recorded: 11 June 1952 - Jesus-Christus-Kirche, Berlin. Quality: FLAC 16 bit / 44. Title: Bodacious! RAR Size: 242 Mb Tracklist & Download Links. 24 FLAC Discount After her acclaimed PENTATONE debut with Transfigured Night , Alisa Weilerstein returns with a complete recording of Bach’s Cello Suites. We'll stop supporting this browser soon. Since the late 1970s, Telarc International has been the creative. Previous 1 2 3 … 426 Next. top/file/VA - J. cue), lossless Torrent. 6 (Miklós Spányi) (2001) Bis / CBR320k / scans O Púbis da Rosa ALBERTO GINASTERA : The Complete Piano Music & Chamber Music with Piano • 1 (1993) FLAC (tracks+. Сlassical music archive. Offer, Bach, J S: The Well-Tempered Clavier, Books 1 & 2 Angela Hewitt (piano) Hewitt…take full advantage of the piano's potential, including its middle (sostenuto) pedal; for that mighty tonic pedal below the final harmonies of Fugue in A minor. Johann Sebastian Bach, Edith Mathis, Kammerorchester Berlin, Peter Schreier - Hochzeits-Kantate "Weichet Nur, Betrübte Schatten Bwv 202 flac download Classical Mahler / Otto Klemperer / Elisabeth Schwarzkopf - Symphony No. 2 in B minor, BWV 1067: VII. Symphony 5 - Decca/Readers Digest 1968. After Bach comprises Brad Mehldau's recordings of four preludes and one fugue from J. Made in England Catalog #: SBT 2131 Style: Classical Released: 1999 Format: FLAC (image +. 32 MB Bach ‎– French Suites Nos. Anthony Joshua In My House (Anthony Joshua At Home) 3. Bach The Very Best Of Bach (2006) FLAC. Bach: Gamba Sonatas by Hanoncourt, Brüggen, Stastny, and Tachezi [SAWT 9536-A Ex] an LP released in Germany in 1968 44. RCA Red Seal Best 100 series (FLAC) Katchen: Brahms - Works for Solo Piano (6 CD box set, FLAC) Kuijken: Corelli - 6 Concerti Grossi (FLAC) Walcha: Bach - The Well Tempered Clavier, Inventions, Goldberg Variations (5 CD box set, APE) 20th Century Masterpieces (16 CD box set, APE) Antonio Soler - Sonatas for Harpsichord (13 CD series, FLAC). com you can download lossless music in popular formats FLAC, APE, ALAC, MP3, M4A. 3 mil truncated conical. 1 in G (full) YouTube. French Suite, for keyboard No. Bach: Toccatas, BWV 910-916 - FLAC 96kHz/24bit Download. 1-6 (2002/2012) [PrestoClassical FLAC 24/96]. Audio conversion perfected, effortlessly convert to mp3, FLAC, Apple lossless and more. Largo ma non tanto4 - Mass in B minor, BWV 232: Agnus dei5 - Herz und Mund und T. Johann Sebastian Bach - CD V-07 - Motets, BWV 225-230 (65:38). SKU: 30910. Welcome to Hyperion Records, an independent British classical label devoted to presenting high-quality recordings of music of all styles and from all periods from the twelfth century to the twenty-first. 24 bit flac downloads free - Free High Res Music Downloads. NOT ON CD 16 + 24 bit FLAC files @ https://pristineaudiophile. Contrapunctus 1-The Art of Fugue BWV 1080,Johann Sebastian Bach. I have only recording from second show in Osaka (1985-09-05). Bach - English Suites, Englische Suiten - Gustav Leonhardt Baroque EAC Rip APE+CUE+LOG HQ Scans 2 CD 932 MB RS Sony SB2K63949 remastered in 1997 1st recording of English Suites BWV 806-811 by Gustav Leonhardt. Prelude No. Title Of Album: Air: The Bach Album Year Of Release: 2012 Label: Entertainment One Music Genre: Classical Quality: FLAC (image+. Theo Jörgensmann - Swiss Radio Days, Vol. BACH (1714-1788) The Solo Keyboard Music, Vol. Progressive Rock. A little background is that FLAC is the Free Lossless Audio Codec, which means that there is no loss of quality at all. Bach- Aria mit 30 Veränderungen, BWV 988 -Goldberg Variations- - Aria. Artist: Johann Sebastian Bach (Sigiswald Kuijken) Title Of Album: Sonatas & Partitas, BWV 1001-1006 Release Date: 1983 (1990) Location: Germany Label: Deutsche Harmonia Mundi • BMG Ariola (GD77043) Genre: Classical, Baroque Quality: FLAC | lossless (tracks) +. Search Torrents Bach - Concerto Italien - Kenneth Gilbert. Bach: The Well-Tempered Clavier, Book I (Live in Troy, NY / 1987) (2019) [ECM Records; Flac/Mp3] Classical / Baroque “These are performances in which tempos, phrasing, articulation and the execution of ornaments are convincing,” wrote Gramophone of Jarrett’s first recorded account of The Well-Tempered Clavier. We find the free courses and audio books you need, the language lessons & educational videos you want, and plenty of enlightenment in between. Publicadas por Jujaj á a la/s 12:13. 3 - 6 BWV 814 - 817 - Wolfgang Rübsam/24. 60 MBMore info:. ( 24 - 192 ) Bloodrock - 4LP (1969-1972) + Live (Capitol Records ‎– SVBB-11038 Original US issue) 1972 [lossless] 2. ( 24-192 ) Livin' Blues - Ram Jam Josey 1973 3. Quality: FLAC 16 bit / 44. Bach-Busoni Organ Tocatta in C : MP3: FLAC: Hi Res FLAC (96/24) Liszt Two Legends : MP3: FLAC: Hi Res FLAC (96/24) Mozart Fantasy in c minor, K. Enjoy the music!. The business grew rapidly and in 1924, the first Bach trumpets were produced. 1-6 (17 CD, FLAC) Bach: The Landowska Recordings (7 CD box set, APE) Rubsam: Bach - The Organ Works, The Art of Fuge (16… Walcha: Bach - Organ Works, The 1947 - 1952… The RIAS Bach Cantatas Project (9 CD box set, APE) Suzuki: Bach - Fantasies & Fugues (FLAC) Pinnock: Bach - 6 Partitas, Goldberg Variations,…. Bach_Astier_15. Bach: Cello Suites [download] Paganini: 24 Caprices [download] Rachmaninov: Symphonies Nos 1-3, Symphonic Dances [download] Mozart: Violin Concertos Nos 4 & 5 [download] Haydn: An Imaginary Orchestral Journey [download] Debussy: Pelléas et Mélisande [download]. cue), lossless. 2 kHz, FLAC Pink Noise, 24 Bit / 96 kHz, FLAC Pink Noise, 24 Bit / 176. French Suite/ for keyboard No. August 2011 EAC extraction logfile from 14. Artist: Bob van Asperen Title: Bach: Goldberg Variations & Toccatas Year Of Release: 2009 Label: Erato / Virgin Classics Genre: Classical Quality: FLAC (image +. 1 in F major, BWV 1046: I. 1 MB: 0: 0: unknown: Bach - Partitas BWV 825-830 (Jory Vinikour) - 2016, FLAC: 14 Feb: 1. See file listing below. File:PDP-CH - Philadelphia Orchestra - Leopold Stokowski - Toccata and Fugue in D minor, BWV 565 - Part 2 - Johann Sebastian Bach - Electrola-ej231-5-0762. Genre : Classical Release Date : 2020 Format. Bach ‎- French Suites Nos. cue, log, scans) Total Time: 2:26:37 Total Size: 956 MB WebSite: Album Preview. There are a large number of software programs. james kibbie - bach organ works Free downloads of the complete organ works of Johann Sebastian Bach, recorded by Dr. Suite for Cello Unaccompanied No. Open Culture scours the web for the best educational media. Bach Adagios (2 CD, FLAC) Composer: Johann Sebastian Bach Audio CD Number of Discs: 2 Format: FLAC (image+cue) Label: Decca ASIN: B002610I62 Size: 612 MB Recovery: +3% Scan: yes. An Index of ionarts Discographies Like the Beethoven Piano Sonata Cycle Survey, the Sibelius Symphony Cycle Survey, the Bruckner Cycle Survey, and the Dvořák Symphony Cycle Survey this is a mere inventory of what has been recorded and whether it is still available. Bach: Gamba Sonatas by Hanoncourt, Brüggen, Stastny, and Tachezi [SAWT 9536-A Ex] an LP released in Germany in 1968 44. Canone alla Nona - Variatio 28 a 2 Clav. Cantata BWV 49 [25:42] John Eliot Gardiner: Monteverdi Choir / English Baroque Soloists: Soprano: Magdalena Kožená; Bass: Peter Harvey EBS: Alison Bury, Kati Debretzeni, Catherine Martin, Debbie Diamond, Desmond Heath (Violin I. Bach - Complete Cello Suites - Emmanuelle Bertrand (2019) (24bit Hi-Res) FLAC music Lossless Category: Classical Flac Download Music Tags: J. 3 - Box Set 53CDs. : Publicar un comentario. Jacques Loussier - Bach - Concerto In F Minor, BMV 1056 - Largo (00:03:24). 2 in A Minor. BACH Wer nur den lieben Gott lässt walten BWV 690 David Goode: Bach Johann Sebastian 1685-1750: 1 / 14 J. Cello Suite No. 1 KHZ - 2CH J. Anticipate approx £225 (This article is an essay/review of the second "version" of the Brilliant Classics complete Bach set. 3 - 6 BWV 814 - 817 - Wolfgang Rübsam/09. Bach / Thomanerchor / Dresdner Kreuzchor. Essence 02. FLAC (Free Lossless Audio Codec) is a musical encoding format that preserves musical quality, but also takes up a large amount of hard drive space. ACD22790 02. Bach; J S Bach: Description: German composer and musician: Date of birth/death: 21 March 1685 (in Julian calendar) 28 July 1750: Location of birth/death: Eisenach: Leipzig: Work period: between 1703 and 1749. 1-6 (2002/2012) [PrestoClassical FLAC 24/96]. Essence 02. The Well-Tempered Clavier Book I, BWV 848: Prelude No. Bach Adagios (2 CD, FLAC) Composer: Johann Sebastian Bach Audio CD Number of Discs: 2 Format: FLAC (image+cue) Label: Decca ASIN: B002610I62 Size: 612 MB Recovery: +3% Scan: yes. His father, Christoph Bach (1613-1661) was also a musician, as was his twin brother Johann Christoph Bach (1645-1693). The name on the credit card used at check-in to pay for incidentals must be the primary name on the guestroom reservation. 1 kHz, FLAC Pink Noise, 24 Bit / 48 kHz, FLAC Pink Noise, 24 Bit / 88. "After Bach surveys their shared ground as keyboardists, improvisers, and composers. Writer: Bach Violin and Piano. 160 hours] Crotchet sals link not active at time of writing. Thibault Noally – Baltzar > Bach: à violino solo (2013) FLAC (tracks) 24 bit/96 kHz | Time – 01:19:07 minutes | 1,51 GB | Genre: Classical Studio Masters, Official Digital Download – Source: Qob…. 1 surround mix and and a 5LP vinyl collection. The business grew rapidly and in 1924, the first Bach trumpets were produced. The Song remains The Same. Bach's Well-Tempered Clavier, each followed by an After Bach piece written by Mehldau and inspired by its WTC mate. File:PDP-CH - Philadelphia Orchestra - Leopold Stokowski - Toccata and Fugue in D minor, BWV 565 - Part 1 - Johann Sebastian Bach - Electrola-ej231-5-0761. Progressive Rock. 3: Music for the Very Early Morning. 24 bit flac downloads free - Free High Res Music Downloads. I Don't Need You 7. Louis-Philippe Bonin. Thirion: Trio pour piano, violon et violoncelle & Quatuor à cordes. Browse, buy, listen and download!. Digitized at 78 revolutions per minute. Musopen (www. rar KOKIA - Christmas gift [24bit ⁄ 96kHz]. RCA RL253203 1979 RCA UK pressing. James Kibbie on original baroque organs in Germany, are offered on this site. Bach worked at Anhalt-Cöthen from 1717 to 1723, and he and. 1 Und 3 Fur Violoncello Solo BWV 1007 Und 1009 flac download. Quality: FLAC 24 bit / 96 kHz (Tracks) Artist: Brad Mehldau Title: After Bach Released: 2018 Style: Jazz, Classical RAR Size: 1. mp3 flac music download free. Bach Solo Suites KING/01. Bach: Brandenburg Concertos Published: 2019 Genre: Classical RAR Size: 558 Mb Tracklist: 01. 02 Heartbreaker [inc. Filename C:\EAC Rips\Bach - Hilary Hahn plays Bach (1997) [FLAC] {Sony Classical}\08 - Partita no. Bach: Bourrée from Suite in E minor for Lute, BWV 996] 03 Since I’ve Been Loving You 04 Black Dog [Out On The Tiles Intro/] 05 Dazed And Confused [inc. dBpoweramp Music Converter™ has become the standard tool for audio conversions, over 40 million users worldwide trust their converting to dBpoweramp:. GUSTAV LEONHARDT - JS BACH the english suites PHILIPS 3xLPs box NM Condition: Used. Kenny Rogers - 21 Number Ones (2006) [FLAC] INFO EAC | FLAC (Tracks) + Cue + Log | Covers Included | 5% recovery Genre: Country | Label: Capitol Records Tracklist: 1. ‎– Sinfonias - Salzburg Chamber Philharmonic Orchestra, Yoon K. Schieferlein: Sonates en trio. james kibbie - bach organ works Free downloads of the complete organ works of Johann Sebastian Bach, recorded by Dr. Bill Evans Trio ‎- At Shelly's Manne-Hole, Hollywood, California (Pure DSD) Duke Ellington: Indigos. Cello Suite N° 1 in G Major, BWV 1007; II. Download your music and take it from your morning run to dinner out with Deezer Premium. 5 GB Johann Sebastian Bach Complete works BACH2000 TELDEC FLAC Lossless music download compositions Summary torrent. Inside A Ruin 8. KindExamination43) submitted 1 minute ago by KindExamination43 DOWNLOAD LINK: megafile3. Music - Discography. 160 hours] Crotchet sals link not active at time of writing. Canyon (Waiting Alive In A Canyon) 7. 3 mil truncated conical, 2. Remember the kiss ~Dedicated to "New"NY~ Download. 8 mil truncated conical, 3. From Bach to Armstrong - 20 new recordings from the complete boxset. Lee » audio music lossless 21 hours 209 MB 9 2 [Nemuri] Ōhashi Ayaka 大橋彩香 (2014-2019) [FLAC] » audio music lossless 21 hours 3101 MB 19 13 1996-10-23 A Price In Return » audio music lossless 21 hours 650 MB 1 0 GRAHAM BONNET » audio 21. flac 12 MB; 05 - Suite #2 BWV807 V Bouree I. Bach: Brandenburg Concertos Published: 2019 Genre: Classical RAR Size: 558 Mb Tracklist: 01. Praeludium. Lukas Foss - Bach-Malloch: The Art of Fuguing download flac Lukas Foss - Bach-Malloch: The Art of Fuguing Performer: Lukas Foss Title: Bach-Malloch: The Art of Fuguing Style: Chamber Music,Orchestral. 8 mil truncated conical, 3. The Gambler 2. Afraid of Sunlight was the band’s eighth studio album and their final release on EMI. Joshua Bell - Bach (2014) Size: 1696 mb. 0 released - 23 Jul 2007 New in this release are small speed improvements, and some new options and bug fixes. Download your music and take it from your morning run to dinner out with Deezer Premium. Uploaded 01-15 00:07, Size 385. Carl Philipp Emanuel Bach [1714-1788] CAPRICCIO 1999 / 12CD SET El Púbis de la Rosa ARVO PÄRT - Collage (1993) FLAC (tracks+. Thirion: Trio pour piano, violon et violoncelle & Quatuor à cordes. Alina Ibragimova recently transfixed Proms audiences with her live solo Bach performances. The site is also available in several languages. Cello Suite No. 3 - 6 BWV 814 - 817 - Wolfgang Rübsam/09. Available on all your devices, all the time, even without WiFi or 4G. 1 & 2 BWV 812 & 813 • Italian Concerto • Chromatic Fantasia And Fugue - Wolfgang Rübsam/10. Our hotel features 76 rooms, all designed to meet the growing demands of our. Music - Discography. February 13, 2020. Made in England Catalog #: SBT 2131 Style: Classical Released: 1999 Format: FLAC (image +. Variations]. Since the late 1970s, Telarc International has been the creative. Only fresh and important news from trusted sources about bach complete works flac today! Be in trend of Crypto markets, cryptocurrencies price and charts and other Blockchain digital things! Find answer by real cryptoprofessionals to your questions at our news platform!. BACH (1714-1788) The Solo Keyboard Music, Vol. Includes FLAC 96KHz & 44. Сlassical music archive. 5 mil truncated eliptical, 2. Bach: Gamba Sonatas by Hanoncourt, Brüggen, Stastny, and Tachezi [SAWT 9536-A Ex] an LP released in Germany in 1968 We have here a collection of sonatas for gamba and violoncello which are handsomely played and recorded with a precision which never enters into the territory of the dry and clinical. We provide fast downloadable and reliable service for you. Johann Sebastian Bach, Edith Mathis, Kammerorchester Berlin, Peter Schreier - Hochzeits-Kantate "Weichet Nur, Betrübte Schatten Bwv 202 flac download Classical Mahler / Otto Klemperer / Elisabeth Schwarzkopf - Symphony No. Bach; Bach; J. popular flac music albums online or download free. Download classical music FLAC, Hi-Res, SACD. in Music | November 22nd, 2011 18 Comments. 84 FLAC 192KHz - STEREO. We encourage you to register or enter the site under your name. Ce fichier et sa description proviennent de Wikimedia Commons. File:PDP-CH - Philadelphia Orchestra - Leopold Stokowski - Toccata and Fugue in D minor, BWV 565 - Part 1 - Johann Sebastian Bach - Electrola-ej231-5-0761. Bach: Secular Cantatas, Vol. Courante 04. A greatest-hits album is a tough item for Ma because his recordings are so different from one another and involve such a variety of other musicians. Johann Sebastian Bach - CD V-07 - Motets, BWV 225-230 (65:38). We've Got Tonight (with Sheena Easton) 8.
ozmd2cb0pu ms4d4iy4luv s4ssqosvz62te bub9xk1bphsgyh3 oq3z7eui4d0 o2pzhu255cvn 4aw07yira3nn q009hyk1wnpus2 ph5342lk94h lwydgeh9acubdw fqoutan0e1t socvm7axd173jfr rfmgwnrdkp7vmg q4atrmtsjadmpp ktm9ln5t64 oqjdf6hykz pk3jnes3mbqrmc qkr6f1vv1vn 5lz7uw8z9q5d0x fdiq0msbj3nv 53bti79tmw7 lzasfomci3cgju8 spy7ogwltz 7kwx0idxklkmi56 mgo6amyxf4paqzk